Nashville 2012 S05E14 VOSTFR 720p HDTV x264 MORFY URL Raccourcie

(¯;`·._.· Nashville (2012) ·._.·´¯






Nombre de saison(s) : 5
Nombre d'épisode(s) : 21
Origine : U.S.A.

Réalisateur : Callie Khouri
Acteurs : Connie Britton, Hayden Panettiere, Clare Bowen
Genre : Drame, Musical
Durée : 42 min
Année de commencement : 2012
Titre original : Nashville
Critiques Spectateurs : 3.9
Plus d'information sur allocine :http://www.allocine.fr/series/ficheserie_gen_cserie=10909.html



Grandeur et décadence dans le milieu de la musique country à Nashville, aux cotés d'une star établie, qui ne sait pas comment envisager la suite de sa carrière, et d'une autre qui débute, déjà touchée par les affres de la célébrité...



Qualité : HDTV 720p
Format : MKV
Langue : Anglais
Sous-titre : Français
Codec vidéo : x264
Codec audio : AC3

Release de la VO : team SVA
Sous Titre:
Sous Titre incrusté avec mkvmerge



De préférence utilisé VLC Media Player ou Média Player Classic. Les sous titres peuvent ne pas passer avec Windows Media Player.


Saison 5 - Episode 14
Découpage : Aucun
Tailles des fichiers : 1 x 756 Mo
Taille totale : 756 Mo


↓↓↓ Nashville 2012 S05E14 VOSTFR 720p HDTV x264 MORFY ↓↓↓
 
Seeders 49 Leechers 0 Téléchargements 79
 
Télécharger Dire merci! Signaler
Voir la liste des membres qui vous remercient
↑↑↑ Nashville 2012 S05E14 VOSTFR 720p HDTV x264 MORFY ↑↑↑

Informations

Nom Nashville 2012 S05E14 VOSTFR 720p HDTV x264 MORFY
Torrent Nashville.2012.S05E14.VOSTFR.720p.HDTV.x264.MORFY.mkv.torrent
Catégorie Série TV
Taille totale 756.13 MB
Info Hash 0a79e8a9f3ccd602981eff4cdc5a1f7c6e5779b5
Uploadé par morfy411
Uploadé le 2017-06-19 00:54:21 (+00:00)
Visites 152
évaluation 5/5 (3 votes)

Liste des Fichiers

Path Size
Nashville.2012.S05E14.VOSTFR.720p.HDTV.x264.MORFY.mkv 756.13 MB

Voir le NFO

 ■General

Unique ID                   : 204245021570064804846593415098450408087 (0x99A82909A4708E379514EB93BE757297)

Complete name               : Nashville.2012.S05E14.VOSTFR.720p.HDTV.x264.MORFY.mkv

Format                      : Matroska

Format version              : Version 4 / Version 2

File size                   : 756 MiB

Duration                    : 41 min 57 s

Release VO		    : Team SVA

Sous titre		    : ADDICTED

Déscription		    : Upload & sous titres incrustés par morfy411

Overall bit rate            : 2 520 kb/s

Encoded date                : UTC 2017-06-19 00:47:00

Writing application         : mkvmerge v9.5.0 ('Quiet Fire') 32bit

Writing library             : libebml v1.3.4 + libmatroska v1.4.5



Video

ID                          : 1

Format                      : AVC

Format/Info                 : Advanced Video Codec

Format profile              : High@L4.1

Format settings, CABAC      : Yes

Format settings, ReFrames   : 5 frames

Codec ID                    : V_MPEG4/ISO/AVC

Duration                    : 41 min 57 s

Bit rate                    : 2 134 kb/s

Width                       : 1 280 pixels

Height                      : 720 pixels

Display aspect ratio        : 16:9

Frame rate mode             : Constant

Frame rate                  : 23.976 (24000/1001) FPS

Color space                 : YUV

Chroma subsampling          : 4:2:0

Bit depth                   : 8 bits

Scan type                   : Progressive

Bits/(Pixel*Frame)          : 0.097

Stream size                 : 640 MiB (85%)

Writing library             : x264 core 148 r2762 90a61ec

Encoding settings           : cabac=1 / ref=5 / deblock=1:0:0 / analyse=0x3:0x113 / me=hex / subme=8 / psy=1 / psy_rd=1.00:0.00 / mixed_ref=1 / me_range=16 / chroma_me=1 / trellis=2 / 8x8dct=1 / cqm=0 / deadzone=21,11 / fast_pskip=1 / chroma_qp_offset=-2 / threads=22 / lookahead_threads=3 / sliced_threads=0 / nr=0 / decimate=1 / interlaced=0 / bluray_compat=0 / constrained_intra=0 / bframes=3 / b_pyramid=2 / b_adapt=1 / b_bias=0 / direct=3 / weightb=1 / open_gop=0 / weightp=2 / keyint=250 / keyint_min=23 / scenecut=40 / intra_refresh=0 / rc_lookahead=50 / rc=crf / mbtree=1 / crf=18.0 / qcomp=0.60 / qpmin=0 / qpmax=69 / qpstep=4 / ip_ratio=1.40 / aq=1:1.00

Default                     : Yes

Forced                      : No

Color range                 : Limited

Matrix coefficients         : BT.709



Audio

ID                          : 2

Format                      : AC-3

Format/Info                 : Audio Coding 3

Mode extension              : CM (complete main)

Format settings, Endianness : Big

Codec ID                    : A_AC3

Duration                    : 41 min 57 s

Bit rate mode               : Constant

Bit rate                    : 384 kb/s

Channel(s)                  : 6 channels

Channel positions           : Front: L C R, Side: L R, LFE

Sampling rate               : 48.0 kHz

Frame rate                  : 31.250 FPS (1536 spf)

Compression mode            : Lossy

Stream size                 : 115 MiB (15%)

Default                     : Yes

Forced                      : No



Text

ID                          : 3

Format                      : UTF-8

Codec ID                    : S_TEXT/UTF8

Codec ID/Info               : UTF-8 Plain Text

Duration                    : 41 min 56 s

Bit rate                    : 99 b/s

Count of elements           : 804

Stream size                 : 30.7 KiB (0%)

Default                     : Yes

Forced                      : No



Ajouter un commentaire

Loading...