Le Nombre 23 MULTi x265 URL Raccourcie


Le Nombre 23




Titre original: The Number 23
Origine : États-Unis
Réalisateur : Joel Schumacher
Acteurs : Jim Carrey, Virginia Madsen, Logan Lerman
Genre : Thriller
Durée : 1h41
Date de sortie : 28 février 2007
Critiques spectateurs : 2,9
Critiques presse : 1,9

Synopsis

Walter, un contrôleur animalier, mène une vie tranquille avec sa femme pâtissière Agatha
et leur fils Robin.

Pour son anniversaire, Agatha offre à Walter un livre qui détaille l'obsession meurtrière
de l'étrange détective Petitou (Fingerling en VO) pour le nombre 23.

Peu à peu, l'univers du livre envahit son quotidien et il s'identifie au mystérieux auteur
du livre. Cette identification tourne à l'obsession et Walter se lance alors dans une quête
de cet auteur qui le fascine et avec qui il semble avoir tant de points communs, notamment
le pouvoir du nombre 23.

Informations sur le fichier

Compression HEVC (x265) du Blu-Ray The Number 23
Qualité : Blu-Ray 1080p
Format : HEVC (x265)
Langue : Anglais, Français (VFF)
Sous-titre : Français
Taille : 3,2 GO

↓↓↓ Le Nombre 23 MULTi x265 ↓↓↓
 
Seeders 21 Leechers 0 Téléchargements 41
 
Télécharger Dire merci! Signaler
Voir la liste des membres qui vous remercient
↑↑↑ Le Nombre 23 MULTi x265 ↑↑↑

Informations

Nom Le Nombre 23 MULTi x265
Torrent Le_Nombre_23.MULTi.x265.torrent
Catégorie Film
Taille totale 2.98 GB
Info Hash 1a797f067eb6d34e238f67ec5f8f8133f4a2f84e
Uploadé par vladimignon
Uploadé le 2017-06-19 00:12:15 (+00:00)
Visites 74
évaluation 5/5 (3 votes)

Liste des Fichiers

Path Size
Le_Nombre_23.MULTi.x265.mkv 2.98 GB

Voir le NFO

General
Unique ID                                : 92143822319322901062400283070760348240 (0x455241315D92DC4C2E5B71892F9DEA50)
Format                                   : Matroska
Format version                           : Version 4 / Version 2
File size                                : 2.98 GiB
Duration                                 : 1h 41mn
Overall bit rate                         : 4 206 Kbps
Movie name                               : Le Nombre 23
Released date                            : 28/02/2007
Encoded date                             : UTC 2017-06-18 22:46:13 / UTC 2017-06-18T20:31:00Z
Writing application                      : mkvmerge v12.0.0 ('Trust / Lust') 64bit
Writing library                          : libebml v1.3.4 + libmatroska v1.4.5 / Lavf56.40.101
ARTIST                                   : Jim Carrey, Virginia Madsen, Logan Lerman
DIRECTOR                                 : Joel Schumacher
GENRE                                    : Thriller

Video
ID                                       : 1
Format                                   : HEVC
Format/Info                              : High Efficiency Video Coding
Format profile                           : [email protected]@Main
Codec ID                                 : V_MPEGH/ISO/HEVC
Duration                                 : 1h 41mn
Bit rate                                 : 2 166 Kbps
Width                                    : 1 920 pixels
Height                                   : 816 pixels
Display aspect ratio                     : 2.35:1
Frame rate mode                          : Constant
Frame rate                               : 23.976 (24000/1001) fps
Color space                              : YUV
Chroma subsampling                       : 4:2:0
Bit depth                                : 8 bits
Bits/(Pixel*Frame)                       : 0.058
Stream size                              : 1.53 GiB (51%)
Title                                    : The Number 23
Writing library                          : x265 1.9:[Linux][GCC 5.3.1][64 bit] 8bit+10bit+12bit
Encoding settings                        : wpp / ctu=64 / min-cu-size=8 / max-tu-size=32 / tu-intra-depth=1 / tu-inter-depth=1 / me=1 / subme=2 / merange=57 / no-rect / no-amp / max-merge=2 / temporal-mvp / no-early-skip / rdpenalty=0 / no-tskip / no-tskip-fast / strong-intra-smoothing / no-lossless / no-cu-lossless / no-constrained-intra / no-fast-intra / open-gop / no-temporal-layers / interlace=0 / keyint=240 / min-keyint=24 / scenecut=40 / rc-lookahead=20 / lookahead-slices=5 / bframes=4 / bframe-bias=0 / b-adapt=2 / ref=3 / limit-refs=3 / no-limit-modes / weightp / no-weightb / aq-mode=1 / qg-size=32 / aq-strength=1,00 / cbqpoffs=0 / crqpoffs=0 / rd=3 / psy-rd=2,00 / rdoq-level=0 / psy-rdoq=0,00 / signhide / deblock / sao / no-sao-non-deblock / b-pyramid / cutree / no-intra-refresh / rc=crf / crf=20,0 / qcomp=0,60 / qpmin=0 / qpmax=51 / qpstep=4 / ipratio=1,40 / pbratio=1,30
Language                                 : English
Default                                  : Yes
Forced                                   : No
Color range                              : Limited
Color primaries                          : BT.709
Transfer characteristics                 : BT.709
Matrix coefficients                      : BT.709
Statistics Tags Issue                    : mkvmerge v12.0.0 ('Trust / Lust') 64bit 2017-06-18 22:46:13 / mkvmerge v12.0.0 ('Trust / Lust') 64bit 2017-06-18 22:46:13 / UTC 2017-06-18T20:31:00Z
FromStats_BitRate                        : 2247134
FromStats_Duration                       : 01:41:16.612000000
FromStats_FrameCount                     : 145693
FromStats_StreamSize                     : 1706870849

Audio #1
ID                                       : 2
Format                                   : DTS
Format/Info                              : Digital Theater Systems
Format profile                           : ES Matrix / Core
Mode                                     : 16
Format settings, Endianness              : Big
Codec ID                                 : A_DTS
Duration                                 : 1h 41mn
Bit rate mode                            : Constant
Bit rate                                 : 1 509 Kbps
Channel(s)                               : 7 channels / 6 channels
Channel positions                        : Front: L C R, Side: L R, Back: C, LFE / Front: L C R, Side: L R, LFE
Sampling rate                            : 48.0 KHz
Frame rate                               : 93.750 fps (512 spf)
Bit depth                                : 24 bits
Compression mode                         : Lossy
Stream size                              : 1.07 GiB (36%)
Title                                    : English - DTS
Language                                 : English
Default                                  : No
Forced                                   : No
Statistics Tags Issue                    : mkvmerge v12.0.0 ('Trust / Lust') 64bit 2017-06-18 22:46:13 / mkvmerge v12.0.0 ('Trust / Lust') 64bit 2017-06-18 22:46:13 / UTC 2017-06-18T20:31:00Z
FromStats_BitRate                        : 1509000
FromStats_Duration                       : 01:41:16.725000000
FromStats_FrameCount                     : 569693
FromStats_StreamSize                     : 1146222316

Audio #2
ID                                       : 3
Format                                   : AC-3
Format/Info                              : Audio Coding 3
Mode extension                           : CM (complete main)
Format settings, Endianness              : Big
Codec ID                                 : A_AC3
Duration                                 : 1h 41mn
Bit rate mode                            : Constant
Bit rate                                 : 448 Kbps
Channel(s)                               : 6 channels
Channel positions                        : Front: L C R, Side: L R, LFE
Sampling rate                            : 48.0 KHz
Frame rate                               : 31.250 fps (1536 spf)
Compression mode                         : Lossy
Delay relative to video                  : 3s 100ms
Stream size                              : 325 MiB (11%)
Title                                    : Français - AC3
Language                                 : French
Default                                  : Yes
Forced                                   : No
Statistics Tags Issue                    : mkvmerge v12.0.0 ('Trust / Lust') 64bit 2017-06-18 22:46:13 / mkvmerge v12.0.0 ('Trust / Lust') 64bit 2017-06-18 22:46:13 / UTC 2017-06-18T20:31:00Z
FromStats_BitRate                        : 448000
FromStats_Duration                       : 01:41:12.384000000
FromStats_FrameCount                     : 189762
FromStats_StreamSize                     : 340053504

Text #1
ID                                       : 4
Format                                   : UTF-8
Codec ID                                 : S_TEXT/UTF8
Codec ID/Info                            : UTF-8 Plain Text
Title                                    : Force
Language                                 : French
Default                                  : Yes
Forced                                   : Yes
Statistics Tags Issue                    : mkvmerge v12.0.0 ('Trust / Lust') 64bit 2017-06-18 22:46:13 / mkvmerge v12.0.0 ('Trust / Lust') 64bit 2017-06-18 22:46:13 / UTC 2017-06-18T20:31:00Z
FromStats_BitRate                        : 0
FromStats_Duration                       : 00:00:01.000000000
FromStats_FrameCount                     : 1
FromStats_StreamSize                     : 0

Text #2
ID                                       : 5
Format                                   : UTF-8
Codec ID                                 : S_TEXT/UTF8
Codec ID/Info                            : UTF-8 Plain Text
Title                                    : Français
Language                                 : French
Default                                  : No
Forced                                   : No
Statistics Tags Issue                    : mkvmerge v12.0.0 ('Trust / Lust') 64bit 2017-06-18 22:46:13 / mkvmerge v12.0.0 ('Trust / Lust') 64bit 2017-06-18 22:46:13 / UTC 2017-06-18T20:31:00Z
FromStats_BitRate                        : 41
FromStats_Duration                       : 01:35:27.853000000
FromStats_FrameCount                     : 1069
FromStats_StreamSize                     : 29492


Ajouter un commentaire

HummerStanding ↑ 44.11 TB ↓ 31.95 TB Ratio: 1,38

Merci infiniment Vladimignon pour cette version en VOST.

syntax18 t411

Torrent Ok!
Merci pour ta participation! Bon download aux autres.
N'oubliez pas de remercier! Les uploadeurs travaillent pour vous et assurent ainsi la diversité des fichiers sur t411.
Un merci, un commentaire et rester en seed, ça fait plaisir à l'uploader.

syntax18 t411

Présentation non conforme:
La présentation d'un torrent doit respecter certaines conditions, concernant la description. Celle-ci doit au moins contenir un résumé, une présentation, un synopsis,etc.
Clique sur ce lien pour accéder à la section dédiée.
Il faut valoriser ton torrent. Un résumé pour une vidéo, une brève description de l'artiste ou du groupe pour de l'audio, etc. Quelques lignes de façon à rendre ta présentation attirante.

Loading...